Обложка
Обложка
Обложка
Обложка
Обложка
Обложка
Обложка
Обложка
Обложка
Обложка
 
Меню сайта

 
 
Категории раздела

Игры [289]
Фильмы [102]
Игры [106]
Фильмы [51]
Программы [15]
Музыка [9]
Windows [3]
Прочее [6]
Мультипликация [8]
 
 
Статистика


Онлайн всего: 1
Гостей: 1
Пользователей: 0
 
 
Банеры

 
Главная » Файлы » Фильмы

Копы в глубоком запасе / The Other Guys [Extended Cut] (2010) BDRip [720p] от HQ-ViDEO 4.73 GB
Копы в глубоком запасе / The Other Guys [Extended Cut] (2010) BDRip [720p]

Релиз от HQ-ViDEO




Жанр: Боевик, Комедия, Криминал
Год: 2010
Студия: Columbia Pictures
Режиссер: Адам МакКэй /Adam McKay/

В ролях: Дерек Джетер /Derek Jeter/, Сэмюэл Л. Джексон /Samuel L. Jackson/, Дуэйн Джонсон /Dwayne Johnson/, Ева Мендес /Eva Mendes/, Ларнел Стовэлл /Larnell Stovall/, Джалил Джей Линч /Jalil Jay Lynch/, Рой Т. Андерсон /Roy T. Anderson/, Эндрю Секунда /Andrew Secunda/, Сара Чейз /Sara Chase/, Дэвид Гидеон /David Gideon/

Описание: Нью-Йоркские детективы Аллен Гэмбл и Терри Хойтз ведут полицейскую бухгалтерию. Гэмблу такая работа в радость, Хойтзу — наказание. Когда напарникам представится шанс выйти из тени — прийти на помощь своим кумирам, детективам Дэнсону и Манцетти — станет ясно, что в бухгалтерию Гэмбла и Хойтза сослали не зря...

  • ********** The Other Guys [Extended Cut] (2010) ***********

    Release Date: 20.12.2010

    Release Info:

    Author ........: GYN

    Runtime .......: 01:56:15 min
    Video Format ..: MKV, H.264 codec
    Video Bitrate .: 4 824 kbps
    Bits per Pixel : 0.293 bit/pixel 
    Resolution ....: 1 280 x 536
    Aspect Ratio ..: 2.35:1
    Framerate .....: 23.976 fps

    Audio First....: Russian AC3 Dolby Digital; 448.00 kbps; 5.1 Ch; 48 kHz

    Subtitle.......: English.

    File Size .....: 4.37 GB
    Source.........: Blu-ray Disc




    MediaInfo
    General
    Complete name : Kopy.V.Glubokom.Zapase.2010.RUS.BDRip.720p.h264.AC 3.-HQ-ViDEO.mkv
    Format : Matroska
    File size : 4.37 GiB
    Duration : 1h 56mn
    Overall bit rate : 5 379 Kbps
    Movie name : The Other Guys (2010)
    Encoded date : UTC 2010-12-20 09:50:29
    Writing application : mkvmerge v3.3.0 ('Language') built on Mar 24 2010 14:59:24
    Writing library : libebml v0.8.0 + libmatroska v0.9.0

    Video
    ID : 1
    Format : AVC
    Format/Info : Advanced Video Codec
    Format profile : High@L4.1
    Format settings, CABAC : Yes
    Format settings, ReFrames : 6 frames
    Muxing mode : Container profile=Unknown@4.1
    Codec ID : V_MPEG4/ISO/AVC
    Duration : 1h 56mn
    Bit rate : 4 824 Kbps
    Width : 1 280 pixels
    Height : 536 pixels
    Display aspect ratio : 2.35:1
    Frame rate : 23.976 fps
    Resolution : 8 bits
    Colorimetry : 4:2:0
    Scan type : Progressive
    Bits/(Pixel*Frame) : 0.293
    Stream size : 3.91 GiB (90%)
    Title : Encoded by GYN

    Audio
    ID : 2
    Format : AC-3
    Format/Info : Audio Coding 3
    Codec ID : A_AC3
    Duration : 1h 56mn
    Bit rate mode : Constant
    Bit rate : 448 Kbps
    Channel(s) : 6 channels
    Channel positions : Front: L C R, Surround: L R, LFE
    Sampling rate : 48.0 KHz
    Stream size : 373 MiB (8%)
    Title : DUB
    Language : Russian

    Text
    ID : 3
    Format : UTF-8
    Codec ID : S_TEXT/UTF8
    Codec ID/Info : UTF-8 Plain Text
    Language : English

    ЯзыкРусский дублированный + Английская дорожка (448/Отдельно).

    Субтитры: Английские.

    Скриншоты для оценки качества (превью - увеличение по клику)


    Релиз: 
    Автор рипа: Артур1996
  • Категория: Фильмы | Добавил: Artus
    Просмотров: 419 | Загрузок: 235 | Рейтинг: 0.0/0
    Всего комментариев: 0
    Добавлять комментарии могут только зарегистрированные пользователи.
    [ Регистрация | Вход ]
     
    Поиск

     
     
    Мини профиль

    Гость

    Сообщения:

    Группа:
    Гости
    Время:00:39

    Гость, мы рады вас видеть. Пожалуйста зарегистрируйтесь или авторизуйтесь!
     
     
    Топ файловики


    Artus
    Файлов:
    385

    Вадимчик
    Файлов:
    110

    beson2010
    Файлов:
    23

    paronoik
    Файлов:
    14

    ModeratoR
    Файлов:
    14

    LioneL
    Файлов:
    11
     
     
    Нас посетили

    [ Кто сегодня был ]
     
     
    Наш опрос

    Сколько вы зарабатываете в месяц?
    (Всего ответов: 40)